<?xml version="1.0" standalone="no"?>
<!DOCTYPE svg PUBLIC "-//W3C//DTD SVG 1.1//EN" "http://www.w3.org/Graphics/SVG/1.1/DTD/svg11.dtd">
<svg xmlns="http://www.w3.org/2000/svg">
<defs >
<font id="BigShouldersText" horiz-adv-x="549" ><font-face
    font-family="Big Shoulders Text Thin ExtraBold"
    units-per-em="2000"
    panose-1="0 0 0 0 0 0 0 0 0 0"
    ascent="1968"
    descent="-426"
    alphabetic="0" />
<glyph unicode=" " horiz-adv-x="434" />
<glyph unicode="!" horiz-adv-x="522" d="M142 409L107 942V1600H373V942L338 409H142ZM62 0V257H418V0H62Z" />
<glyph unicode="&quot;" horiz-adv-x="790" d="M132 1065L83 1335V1600H312V1335L264 1065H132ZM527 1065L478 1335V1600H707V1335L658 1065H527Z" />
<glyph unicode="#" horiz-adv-x="1437" d="M167 0L267 430H60L112 646H314L391 964H186L238 1180H439L538 1600H805L706 1180H911L1010 1600H1276L1177 1180H1377L1328 964H1129L1052 646H1249L1196 430H1005L905 0H639L739 430H533L433 0H167ZM581 646H786L864
964H657L581 646Z" />
<glyph unicode="$" horiz-adv-x="962" d="M365 -211V-10Q219 12 153 98T78 352Q77 390 77 431T79 514T85 595H334Q330 518 330 444T334 305Q339 252 375 226T482 199Q548 199 583 225T624 305Q628 342 629 379T630 454T624 529Q621 580 590 616T505 665L339 703Q240
726 183 773T100 894T71 1068Q70 1117 70 1160T72 1250Q79 1417 147 1503T365 1611V1829H596V1611Q741 1590 809 1504T883 1250Q885 1202 884 1137T880 1011H625Q628 1086 629 1156T627 1297Q626 1349 590 1375T482 1402Q415 1402 379 1376T336 1297Q331 1239 331
1183T336 1068Q341 1016 363 981T438 934L586 903Q694 880 759 831T856 706T891 529Q892 501 892 471T891 410T889 352Q882 182 814 96T596 -11V-211H365Z" />
<glyph unicode="%" horiz-adv-x="1318" d="M109 0L1015 1600H1200L292 0H109ZM972 -11Q854 -11 786 46T712 219Q710 273 710 315T709 402T712 504Q716 614 783 672T972 731Q1094 731 1161 672T1235 504Q1237 472 1237 435T1238 359T1238 285T1235 220Q1229 110
1162 50T972 -11ZM972 142Q1003 142 1018 155T1037 186Q1041 214 1042 258T1044 353T1043 452T1037 535Q1036 554 1021 566T972 578Q942 578 926 566T908 535Q904 486 903 417T902 285T908 187Q911 170 927 156T972 142ZM333 867Q214 867 146 924T72 1097Q70 1151
70 1193T69 1280T72 1382Q77 1492 144 1550T333 1609Q455 1609 522 1550T596 1382Q598 1350 598 1313T599 1237T599 1163T596 1098Q590 988 522 928T333 867ZM333 1020Q364 1020 379 1033T398 1064Q401 1092 403 1136T405 1231T403 1330T398 1413Q397 1432 382
1444T333 1456Q302 1456 287 1444T269 1413Q264 1364 263 1296T262 1163T269 1065Q272 1048 288 1034T333 1020Z" />
<glyph unicode="&amp;" horiz-adv-x="1214" d="M506 -19Q290 -19 194 68T88 352Q86 400 86 431T88 493T93 569Q100 688 149 760T264 885Q221 976 193 1064T155 1235Q135 1408 222 1513T507 1619Q701 1619 785 1523T852 1248Q841 1145 791 1052T651 875Q636 862
619 848T583 819Q615 767 651 714T725 610Q724 653 720 703T706 811H922Q929 753 934 675T940 514T937 362Q993 299 1042 247T1128 157L956 -6Q927 24 898 54T840 117Q808 70 762 41T652 -4T506 -19ZM513 191Q559 191 590 202T640 238T670 303Q597 390 527 481T396
664Q378 644 367 618T351 558Q347 523 346 496T344 434T348 345Q352 271 390 231T513 191ZM467 1016Q512 1050 544 1086T596 1161T620 1246Q635 1336 612 1390T507 1444Q443 1444 416 1395T392 1275Q395 1218 415 1152T467 1016Z" />
<glyph unicode="&apos;" horiz-adv-x="408" d="M135 1065L83 1335V1600H325V1335L273 1065H135Z" />
<glyph unicode="(" horiz-adv-x="599" d="M345 -400Q258 -286 194 -128T95 218T60 609Q60 788 90 972T184 1320T345 1600H539Q440 1374 388 1116T335 600Q335 430 358 256T427 -84T539 -400H345Z" />
<glyph unicode=")" horiz-adv-x="565" d="M221 -400H26Q93 -251 138 -85T207 256T230 600Q230 857 178 1115T26 1600H221Q318 1484 381 1320T474 972T505 609Q505 406 471 219T372 -127T221 -400Z" />
<glyph unicode="*" horiz-adv-x="548" d="M42 1331L185 1392L42 1453L98 1547L228 1466L217 1608H331L318 1468L449 1547L506 1453L363 1392L506 1331L449 1237L318 1318L331 1176H217L228 1316L98 1237L42 1331Z" />
<glyph unicode="+" horiz-adv-x="1067" d="M431 297V627H103V827H431V1157H636V827H963V627H636V297H431Z" />
<glyph unicode="," horiz-adv-x="513" d="M120 -267L248 0H78V262H435V24L272 -267H120Z" />
<glyph unicode="-" horiz-adv-x="878" d="M60 604V837H818V604H60Z" />
<glyph unicode="." horiz-adv-x="480" d="M62 0V257H418V0H62Z" />
<glyph unicode="/" horiz-adv-x="825" d="M60 -400L497 1600H765L328 -400H60Z" />
<glyph unicode="0" horiz-adv-x="995" d="M498 -19Q304 -19 199 77T89 353Q86 514 85 665T85 962T89 1248Q94 1428 199 1523T498 1619Q688 1619 793 1524T904 1248Q908 1130 910 1016T912 790T910 570T904 353Q898 168 791 75T498 -19ZM498 198Q629 198 635 300Q642
475 644 636T644 959T635 1299Q632 1402 498 1402Q362 1402 359 1297Q354 1158 352 1036T350 799T352 563T359 305Q362 198 498 198Z" />
<glyph unicode="1" horiz-adv-x="551" d="M171 0V1361H58L50 1456L226 1600H446V0H171Z" />
<glyph unicode="2" horiz-adv-x="958" d="M78 0Q77 37 77 66T76 122T75 176T75 239T76 323Q79 433 113 519T214 674T377 795L510 867Q580 905 599 958T622 1059Q626 1114 626 1176T624 1294Q621 1346 586 1374T479 1402Q409 1402 378 1374T345 1301Q343 1223 343
1156T346 1010H80Q78 1054 77 1096T76 1175T76 1248Q84 1447 178 1533T479 1619Q625 1619 713 1582T844 1462T892 1248Q893 1224 893 1199T894 1151T894 1104T892 1059Q888 952 852 874T755 739T612 637L461 555Q418 532 394 492T359 407T348 323V233H873V0H78Z"
/>
<glyph unicode="3" horiz-adv-x="963" d="M485 -19Q264 -19 164 67T58 354Q57 392 57 417T56 468T58 535H328V319Q328 261 366 230T478 198Q551 198 587 229T625 318Q627 394 627 455T624 573Q621 632 588 673T463 712L276 710L269 933L577 1367H75V1600H886L882
1375L564 941Q726 930 805 844T894 566Q896 539 896 512T897 459T897 407T894 354Q886 154 791 68T485 -19Z" />
<glyph unicode="4" horiz-adv-x="1002" d="M527 0V421H43V640L421 1600H779V652H955V421H779V0H527ZM301 652H527L562 1034L593 1367H537L433 1034L301 652Z" />
<glyph unicode="5" horiz-adv-x="992" d="M509 -19Q287 -19 188 68T83 354Q81 419 82 458T84 535H354Q351 506 350 463T348 380T351 320Q356 259 394 229T501 198Q575 198 610 229T650 320Q659 429 660 516T654 682Q648 740 616 768T516 797Q470 797 436 783T383
744T362 688H108V1600H898V1367H375V907H418Q445 952 504 984T640 1016Q777 1016 845 930T922 694Q926 634 927 575T926 460T920 355Q908 221 865 139T735 19T509 -19Z" />
<glyph unicode="6" horiz-adv-x="983" d="M495 -19Q279 -19 185 67T88 354Q87 516 86 656T84 912T85 1111T88 1248Q96 1437 200 1527T493 1618Q688 1618 791 1523T900 1261Q901 1236 901 1214T902 1166T900 1104H632Q635 1139 635 1165T635 1222T632 1296Q630
1346 597 1374T495 1402Q427 1402 394 1376T358 1296Q355 1210 353 1107T350 889H400Q427 936 488 967T626 998Q785 998 846 924T911 675Q913 606 913 559T914 465T910 354Q899 154 805 68T495 -19ZM497 197Q567 197 603 224T640 305Q642 363 643 409T645 497T646
580T643 668Q642 724 604 751T505 778Q438 778 395 751T350 672Q350 584 351 493T356 310Q358 254 394 226T497 197Z" />
<glyph unicode="7" horiz-adv-x="904" d="M140 0L599 1367H27V1600H867V1361L419 0H140Z" />
<glyph unicode="8" horiz-adv-x="981" d="M490 -19Q273 -19 181 71T81 354Q80 386 80 411T80 465T84 535Q94 640 135 701T258 796V835Q200 855 158 902T102 1021Q97 1056 94 1096T89 1175T89 1246Q100 1443 190 1531T490 1619Q695 1619 788 1533T891 1246Q893
1215 892 1174T888 1093T879 1022Q866 949 824 902T722 835V794Q797 760 840 699T896 538Q902 480 902 438T900 354Q890 156 797 69T490 -19ZM490 198Q562 198 596 228T630 319Q631 362 631 402T631 482T630 564Q630 625 596 656T490 687Q419 687 385 656T351 564Q350
502 350 442T350 320Q351 261 384 230T490 198ZM490 940Q560 940 595 971T630 1063Q630 1117 630 1172T630 1281Q630 1341 597 1371T490 1402Q420 1402 386 1372T351 1281Q350 1251 350 1224T350 1171T350 1118T351 1062Q351 1001 386 971T490 940Z" />
<glyph unicode="9" horiz-adv-x="983" d="M498 -19Q287 -19 192 67T97 352Q97 371 97 395T97 446T99 495H367Q366 446 365 402T366 305Q369 254 398 226T495 197Q556 197 589 223T625 307Q630 389 632 491T635 708H592Q568 662 514 631T381 599Q299 599 228 633T114
742T70 937Q70 995 70 1043T69 1130T69 1198T71 1246Q80 1446 177 1532T486 1618Q703 1618 796 1532T893 1246Q897 1063 898 918T898 639T893 352Q890 154 795 68T498 -19ZM486 819Q552 819 589 842T633 910Q632 1006 630 1104T624 1298Q623 1349 587 1375T484
1402Q416 1402 379 1375T341 1294Q341 1282 341 1234T340 1124T339 1007T339 926Q341 873 381 846T486 819Z" />
<glyph unicode=":" horiz-adv-x="511" d="M78 600V857H433V600H78ZM78 0V257H433V0H78Z" />
<glyph unicode=";" horiz-adv-x="529" d="M136 -267L264 0H94V262H451V24L287 -267H136ZM78 601V858H433V601H78Z" />
<glyph unicode="&lt;" horiz-adv-x="1169" d="M1049 439L120 573V891L1049 1030V814L606 767L319 760V707L606 699L1049 654V439Z" />
<glyph unicode="=" horiz-adv-x="1033" d="M86 805V1006H947V805H86ZM86 452V652H947V452H86Z" />
<glyph unicode="&gt;" horiz-adv-x="1102" d="M86 439V654L530 699L817 707V760L530 767L86 814V1030L1015 891V573L86 439Z" />
<glyph unicode="?" horiz-adv-x="967" d="M355 437L351 533Q345 611 354 670T402 780T522 882L560 905Q585 920 597 947T613 1006T617 1071V1281Q617 1331 581 1357T479 1384Q417 1384 384 1357T346 1281Q343 1221 343 1155T345 1037H57Q55 1084 54 1112T53 1166T55
1228Q67 1440 163 1531T477 1622Q710 1622 811 1530T913 1228Q913 1203 913 1177T913 1124T913 1070Q913 959 893 893T841 790T775 735T711 701L659 676Q614 653 605 614T589 533L581 437H355ZM291 0V257H646V0H291Z" />
<glyph unicode="@" horiz-adv-x="1391" d="M694 -304Q483 -304 351 -261T156 -123T91 125Q89 236 87 339T85 551T86 782T91 1053Q94 1213 156 1311T350 1455T694 1501Q902 1501 1034 1456T1230 1312T1299 1052Q1301 959 1302 875T1304 711T1303 555T1299 400Q1295
300 1224 250T1029 199Q903 199 847 228T772 296H730Q704 251 674 224T584 197Q504 197 463 248T411 417Q406 477 405 544T406 678T411 798Q418 919 461 971T587 1024Q643 1024 672 1000T729 924H757V1011H964L965 405Q965 370 982 352T1029 333Q1056 333 1071
352T1089 407Q1092 467 1094 542T1097 702T1097 879T1091 1064Q1085 1203 996 1265T694 1327Q487 1327 397 1267T302 1064Q298 930 296 810T294 576T296 349T302 113Q306 -18 396 -73T694 -129Q898 -129 989 -79T1081 104Q1081 115 1081 122T1081 141H1287Q1287
132 1287 124T1287 105Q1286 -47 1226 -136T1036 -264T694 -304ZM671 343Q691 343 718 358T757 396V819Q747 846 718 860T671 875Q642 875 632 860T619 817Q614 739 613 675T613 547T619 405Q621 371 634 357T671 343Z" />
<glyph unicode="A" horiz-adv-x="965" d="M40 0L250 1600H715L925 0H653L618 364H347L312 0H40ZM372 597H593L558 947L529 1366H436L407 947L372 597Z" />
<glyph unicode="B" horiz-adv-x="961" d="M105 0V1600H488Q696 1600 791 1517T886 1241Q886 1195 886 1158T884 1083Q878 980 839 920T714 832V788Q802 761 842 700T887 532Q890 485 890 446T887 359Q879 167 788 84T489 0H105ZM370 234H489Q556 234 589 266T623
362Q623 404 623 441T623 520Q622 616 592 655T490 695H370V234ZM370 929H492Q556 929 588 970T621 1090Q622 1133 622 1172T621 1255Q621 1311 588 1338T488 1366H370V929Z" />
<glyph unicode="C" horiz-adv-x="983" d="M500 -19Q286 -19 191 67T90 352Q88 472 87 582T86 800T87 1018T90 1251Q93 1443 191 1530T499 1618Q705 1618 802 1528T905 1249Q906 1212 906 1171T906 1090T903 1011H639Q640 1052 641 1094T642 1179T640 1263Q639
1338 607 1369T499 1401Q424 1401 391 1370T355 1263Q352 1141 351 1027T349 800T350 574T355 338Q357 262 391 230T500 198Q578 198 611 230T648 338Q650 382 650 420T651 499T648 594H913Q915 534 915 470T913 352Q907 153 812 67T500 -19Z" />
<glyph unicode="D" horiz-adv-x="989" d="M105 0V1600H500Q709 1600 802 1513T898 1226Q901 1074 902 938T902 665T898 376Q895 175 803 88T503 0H105ZM370 234H503Q568 234 600 262T634 345Q637 464 638 577T640 801T639 1025T634 1256Q633 1311 600 1338T500
1366H370V234Z" />
<glyph unicode="E" horiz-adv-x="843" d="M105 0V1600H787V1366H370V929H767V695H370V234H787V0H105Z" />
<glyph unicode="F" horiz-adv-x="829" d="M105 0V1600H790V1366H370V929H770V695H370V0H105Z" />
<glyph unicode="G" horiz-adv-x="991" d="M502 -18Q360 -18 271 19T140 138T92 352Q89 449 88 563T86 796T87 1028T92 1235Q97 1372 140 1456T271 1579T502 1618Q709 1618 802 1533T907 1250Q910 1196 910 1131T907 1011H642Q645 1082 645 1145T642 1280Q638 1347
607 1374T502 1402Q426 1402 394 1375T357 1280Q351 1163 349 1043T346 801T348 559T357 322Q361 254 393 227T502 199Q582 199 616 226T655 322Q657 352 657 387T658 458T655 524H533V755H913Q917 656 917 550T911 352Q903 153 808 68T502 -18Z" />
<glyph unicode="H" horiz-adv-x="1001" d="M105 0V1600H370V929H631V1600H896V0H631V695H370V0H105Z" />
<glyph unicode="I" horiz-adv-x="475" d="M105 0V1600H370V0H105Z" />
<glyph unicode="J" horiz-adv-x="916" d="M430 -18Q297 -18 214 19T90 138T45 352Q44 409 44 473T45 595H294Q293 554 293 506T292 411T294 322Q296 255 327 227T430 199Q503 199 533 227T564 322V1600H828V352Q828 153 736 68T430 -18Z" />
<glyph unicode="K" horiz-adv-x="984" d="M105 0V1600H387L383 1215L355 829H423L531 1223L667 1600H955L696 928L970 0H702L515 653L375 360V0H105Z" />
<glyph unicode="L" horiz-adv-x="781" d="M105 0V1600H370V234H758V0H105Z" />
<glyph unicode="M" horiz-adv-x="1592" d="M105 0V1600H597L720 982L755 235H838L872 982L996 1600H1486V0H1214V494L1262 1366H1170L1082 469L962 2H622L512 469L421 1366H331L378 494V0H105Z" />
<glyph unicode="N" horiz-adv-x="1180" d="M105 0V1600H557L669 1091L785 234H875L828 944L808 1600H1075V0H603L488 536L398 1368H305L348 610L370 0H105Z" />
<glyph unicode="O" horiz-adv-x="1001" d="M499 -18Q285 -18 190 68T90 354Q88 477 87 586T86 801T87 1016T90 1247Q95 1447 190 1532T499 1618Q711 1618 805 1533T906 1247Q911 1126 913 1017T915 801T913 586T906 354Q900 154 806 68T499 -18ZM499 199Q576 199
608 231T642 341Q646 462 649 575T652 800T649 1026T642 1261Q641 1337 609 1369T499 1402Q424 1402 391 1370T355 1261Q350 1141 348 1028T346 803T348 577T355 341Q357 263 390 231T499 199Z" />
<glyph unicode="P" horiz-adv-x="954" d="M105 0V1600H499Q704 1600 795 1517T894 1243Q897 1146 897 1066T894 895Q887 704 796 621T498 537H370V0H105ZM370 771H498Q564 771 595 799T629 881Q632 937 633 1001T634 1130T629 1256Q627 1311 596 1338T499 1366H370V771Z" />
<glyph unicode="Q" horiz-adv-x="1001" d="M836 -303Q660 -317 572 -250T464 -18Q269 -11 182 75T90 354Q88 477 87 586T86 801T87 1016T90 1247Q95 1447 190 1532T499 1618Q711 1618 805 1533T906 1247Q911 1126 913 1017T915 801T913 586T906 354Q903 217 858
135T717 16Q714 -45 744 -71T836 -90V-303ZM499 199Q576 199 608 231T642 341Q646 462 649 575T652 800T649 1026T642 1261Q641 1337 609 1369T499 1402Q424 1402 391 1370T355 1261Q350 1141 348 1028T346 803T348 577T355 341Q357 263 390 231T499 199Z" />
<glyph unicode="R" horiz-adv-x="962" d="M105 0V1600H485Q690 1600 782 1517T880 1243Q882 1177 883 1126T883 1026T880 915Q876 794 839 718T722 602L904 0H624L473 558H370V0H105ZM370 792H485Q550 792 581 820T615 902Q618 961 619 1020T620 1138T615 1256Q612
1311 581 1338T485 1366H370V792Z" />
<glyph unicode="S" horiz-adv-x="962" d="M483 -18Q273 -18 180 67T78 352Q77 390 77 431T79 514T85 595H334Q330 518 330 444T334 305Q339 252 375 226T482 199Q548 199 583 225T624 305Q628 342 629 379T630 454T624 529Q621 580 590 616T505 665L339 703Q240
726 183 773T100 894T71 1068Q70 1117 70 1160T72 1250Q77 1382 120 1463T252 1581T482 1618Q689 1618 782 1533T883 1250Q885 1202 884 1137T880 1011H625Q628 1086 629 1156T627 1297Q626 1349 590 1375T482 1402Q415 1402 379 1376T336 1297Q331 1239 331 1183T336
1068Q341 1016 363 981T438 934L586 903Q694 880 759 831T856 706T891 529Q892 501 892 471T891 410T889 352Q881 153 787 68T483 -18Z" />
<glyph unicode="T" horiz-adv-x="824" d="M280 0V1366H11V1600H813V1366H544V0H280Z" />
<glyph unicode="U" horiz-adv-x="997" d="M499 -18Q283 -18 189 67T91 351Q87 662 87 976T91 1600H356Q352 1393 352 1177T352 745T355 321Q355 261 391 230T499 199Q571 199 606 230T641 321Q643 528 644 744T646 1177T641 1600H906Q911 1290 911 976T906 351Q903
153 809 68T499 -18Z" />
<glyph unicode="V" horiz-adv-x="983" d="M255 0L36 1600H310L422 776L445 234H538L561 776L673 1600H947L728 0H255Z" />
<glyph unicode="W" horiz-adv-x="1623" d="M189 0L48 1600H314L362 901L395 234H485L493 901L616 1590H1006L1130 901L1138 234H1228L1261 901L1309 1600H1575L1434 0H955L886 466L855 1365H767L736 466L667 0H189Z" />
<glyph unicode="X" horiz-adv-x="908" d="M21 0L255 828L27 1600H286L385 1225L418 934H494L526 1225L621 1600H880L663 819L887 0H628L527 394L494 701H418L384 394L280 0H21Z" />
<glyph unicode="Y" horiz-adv-x="878" d="M306 0V521H270L21 1600H291L372 1196L410 729H468L505 1196L587 1600H857L606 521H571V0H306Z" />
<glyph unicode="Z" horiz-adv-x="810" d="M32 0V220L495 1366H55V1600H778V1374L300 234H747V0H32Z" />
<glyph unicode="[" horiz-adv-x="707" d="M86 -400V1600H647V1474H358V-274H647V-400H86Z" />
<glyph unicode="\" horiz-adv-x="778" d="M718 -400H450L14 1600H281L718 -400Z" />
<glyph unicode="]" horiz-adv-x="707" d="M621 -400H60V-274H349V1474H60V1600H621V-400Z" />
<glyph unicode="^" horiz-adv-x="875" d="M86 876L348 1378H527L788 876H611L437 1211L264 876H86Z" />
<glyph unicode="_" horiz-adv-x="1352" d="M60 -120V-80H1292V-120H60Z" />
<glyph unicode="`" horiz-adv-x="558" d="M260 1280L80 1547H271L441 1280H260Z" />
<glyph unicode="a" horiz-adv-x="947" d="M338 -15Q204 -15 139 48T60 261Q59 280 59 306T60 351Q66 430 96 487T191 589T365 673Q421 693 474 708T593 741V911Q593 968 564 994T471 1020Q415 1020 386 998T354 924Q353 908 353 870T352 795T354 749H98Q97 769
96 811T96 894Q100 1006 137 1078T257 1184T480 1219Q623 1219 704 1182T819 1063T853 852L851 0H588V125H548Q514 54 469 20T338 -15ZM443 175Q491 175 530 199T590 265L592 564Q552 554 511 542T430 511Q366 483 348 441T326 351Q325 325 325 313T326 280Q331
230 360 203T443 175Z" />
<glyph unicode="b" horiz-adv-x="992" d="M633 -19Q537 -19 489 18T398 125H368V0H98V1600H368V1075H415Q458 1145 506 1182T650 1219Q776 1219 841 1146T913 902Q915 845 916 765T918 599T917 434T913 298Q905 129 832 55T633 -19ZM537 175Q594 175 617 199T643
276Q647 344 649 425T651 592T651 762T645 921Q642 972 619 998T537 1025Q486 1025 438 1000T368 931V269Q389 224 438 200T537 175Z" />
<glyph unicode="c" horiz-adv-x="920" d="M587 749Q588 772 588 804T589 869T587 923Q585 972 561 996T469 1020Q403 1020 377 998T349 923Q346 831 345 752T344 598T345 447T349 284Q351 228 379 204T473 180Q538 180 561 206T587 286Q589 319 589 357T587 454H850Q852
436 853 392T852 313Q844 136 756 59T473 -19Q267 -19 179 60T80 313Q77 367 76 444T75 606T76 765T80 883Q92 1064 182 1141T469 1219Q667 1219 755 1143T852 893Q854 858 853 812T850 749H587Z" />
<glyph unicode="d" horiz-adv-x="993" d="M348 -19Q220 -19 154 55T80 298Q77 357 76 437T75 604T76 769T80 902Q87 1073 156 1146T352 1219Q447 1219 495 1182T586 1075H625V1600H895V0H625V125H584Q544 56 493 19T348 -19ZM456 175Q505 175 555 199T625 269V931Q605
976 555 1000T456 1025Q403 1025 378 1002T350 931Q344 824 342 710T342 485T349 277Q352 223 376 199T456 175Z" />
<glyph unicode="e" horiz-adv-x="919" d="M473 -19Q267 -19 179 60T80 314Q77 367 76 445T75 607T76 765T80 883Q92 1064 183 1141T470 1219Q667 1219 755 1143T852 894Q853 870 853 813T854 685T850 555H344Q344 490 345 424T349 284Q351 228 379 204T472 180Q535
180 559 204T587 286Q589 316 589 356T587 454H850Q852 437 853 392T852 314Q843 136 756 59T473 -19ZM345 740H589Q589 779 589 817T589 883T587 922Q584 975 558 997T470 1020Q403 1020 377 997T349 922Q348 875 347 830T345 740Z" />
<glyph unicode="f" horiz-adv-x="691" d="M162 0V1000H27V1200H162V1289Q161 1467 257 1544T555 1621Q590 1621 630 1617T709 1607V1414Q672 1414 634 1414T556 1415Q494 1415 462 1389T431 1309V1200H660V1000H431V0H162Z" />
<glyph unicode="g" horiz-adv-x="998" d="M452 -387Q294 -387 199 -341T85 -207Q83 -193 81 -174T82 -139Q89 -86 123 -52T216 -11V27Q160 38 130 67T92 141Q89 160 90 172T92 200Q97 243 136 270T236 306V344Q155 380 116 453T69 642Q68 674 67 706T66 770T67
829T69 883Q78 1003 120 1077T247 1185T464 1219Q594 1219 677 1187T802 1085H840Q848 1145 885 1172T995 1200V999H966Q915 999 887 975T858 889V835Q858 819 858 797T858 749T859 695T856 642Q849 521 807 447T682 339T464 305Q372 306 330 292T287 246V239Q287
217 300 205T350 188T460 180Q662 177 761 118T880 -59Q883 -75 884 -98T880 -146Q868 -233 818 -286T678 -363T452 -387ZM468 -206Q525 -206 567 -198T635 -172T669 -127Q674 -111 673 -97T667 -69Q659 -44 635 -28T569 -4T468 4Q393 4 346 -13T288 -70Q285 -86
285 -100T288 -128Q295 -155 318 -172T380 -197T468 -206ZM464 504Q526 504 559 530T597 605Q599 637 600 676T601 757T600 841T597 918Q593 968 561 994T464 1020Q399 1020 365 994T328 913Q327 878 326 839T324 760T325 681T328 612Q331 558 365 531T464 504Z"
/>
<glyph unicode="h" horiz-adv-x="1010" d="M98 0V1600H368V1075H415Q458 1145 506 1182T650 1219Q779 1219 845 1146T913 902L917 0H647L644 925Q644 976 619 1000T539 1025Q486 1025 438 1000T368 931V0H98Z" />
<glyph unicode="i" horiz-adv-x="461" d="M92 1391V1600H369V1391H92ZM98 0V1200H363V0H98Z" />
<glyph unicode="j" horiz-adv-x="462" d="M94 1391V1600H371V1391H94ZM-30 -423Q-65 -423 -107 -419T-187 -409V-212Q-158 -214 -112 -215T-30 -217Q35 -217 67 -191T99 -115V1200H364V-90Q364 -268 269 -345T-30 -423Z" />
<glyph unicode="k" horiz-adv-x="902" d="M98 0V1600H349V1294L318 726H363L466 991L581 1200H858L603 741L906 0H630L435 481L356 360V0H98Z" />
<glyph unicode="l" horiz-adv-x="461" d="M98 0V1600H363V0H98Z" />
<glyph unicode="m" horiz-adv-x="1514" d="M98 0V1200H365V1075H413Q454 1144 499 1181T638 1219Q728 1219 788 1181T877 1058H918Q959 1127 1013 1173T1162 1219Q1285 1219 1352 1146T1420 902V0H1154V925Q1154 978 1126 1001T1048 1025Q1005 1025 964 998T898
931V0H630V925Q630 976 605 1000T527 1025Q479 1025 432 1000T365 931V0H98Z" />
<glyph unicode="n" horiz-adv-x="1010" d="M98 0V1200H363V1075H415Q458 1145 508 1182T650 1219Q779 1219 847 1146T917 902V0H652V925Q652 977 623 1001T539 1025Q490 1025 437 1000T363 931V0H98Z" />
<glyph unicode="o" horiz-adv-x="956" d="M479 -19Q337 -19 252 18T127 137T79 353Q77 397 76 461T75 598T76 737T79 848Q87 984 127 1065T253 1183T479 1219Q623 1219 707 1181T831 1062T877 848Q879 803 880 738T882 601T881 465T877 353Q869 219 830 137T707
18T479 -19ZM479 180Q550 180 579 207T611 288Q614 377 615 455T617 606T616 755T611 914Q609 967 580 993T479 1020Q409 1020 378 992T344 913Q341 847 340 772T339 617T340 454T345 288Q347 235 378 208T479 180Z" />
<glyph unicode="p" horiz-adv-x="992" d="M98 -400V1200H368V1075H407Q449 1145 497 1182T642 1219Q768 1219 836 1146T913 902Q915 849 916 768T918 598T917 429T913 298Q905 129 830 55T628 -19Q556 -19 505 14T407 125H368V-400H98ZM521 175Q577 175 609 199T643
276Q648 358 650 442T652 610T650 776T643 931Q641 978 616 1001T537 1025Q486 1025 438 1000T368 931V269Q391 218 428 197T521 175Z" />
<glyph unicode="q" horiz-adv-x="993" d="M625 -400V125H590Q544 47 493 14T368 -19Q241 -19 165 55T80 298Q77 356 76 437T75 605T76 771T80 902Q88 1072 156 1145T351 1219Q447 1219 495 1182T584 1075H625V1200H894V-400H625ZM471 175Q528 175 565 196T625
269V931Q605 976 555 1000T456 1025Q406 1025 378 1002T347 923Q343 827 342 709T342 475T349 274Q352 224 385 200T471 175Z" />
<glyph unicode="r" horiz-adv-x="703" d="M98 0V1200H370V1058H419Q433 1142 479 1174T602 1207Q626 1207 650 1205T691 1202V1000H605Q503 1000 445 971T370 869V0H98Z" />
<glyph unicode="s" horiz-adv-x="875" d="M432 -19Q241 -19 160 58T71 313Q70 353 70 386T73 439H310Q307 380 307 346T309 284Q312 226 342 203T432 180Q503 180 535 204T567 286Q568 312 568 320T568 335T567 367Q567 407 550 432T488 469L348 505Q256 530 193
568T97 665T64 812Q64 832 64 848T64 882Q65 1062 150 1140T445 1219Q635 1219 716 1143T806 893Q807 872 807 827T803 765H558Q559 788 559 818T560 877T558 923Q556 976 532 998T445 1020Q380 1020 355 998T327 923Q327 916 326 897T325 836Q325 786 342 758T412
717L537 688Q677 656 747 586T817 381Q817 362 817 344T816 306Q815 133 727 57T432 -19Z" />
<glyph unicode="t" horiz-adv-x="690" d="M556 -19Q335 -19 241 58T146 317L144 1000H30V1200H150V1540H419V1200H641V1000H412L415 286Q415 222 446 201T557 179Q584 179 608 180T663 181V-9Q639 -13 613 -16T556 -19Z" />
<glyph unicode="u" horiz-adv-x="1004" d="M364 -19Q237 -19 164 55T90 298V1200H357L360 276Q360 224 384 200T465 175Q516 175 566 200T636 269V1200H905V0H636V125H599Q553 48 497 15T364 -19Z" />
<glyph unicode="v" horiz-adv-x="876" d="M211 0L25 1200H299L372 597L399 195H475L502 597L577 1200H851L663 0H211Z" />
<glyph unicode="w" horiz-adv-x="1477" d="M181 0L25 1200H295L345 597L368 195H446L458 597L515 1199H963L1017 597L1032 195H1105L1129 597L1182 1200H1452L1293 0H838L800 466L780 1003H696L676 466L641 0H181Z" />
<glyph unicode="x" horiz-adv-x="829" d="M18 0L230 632L22 1200H283L360 949L388 738H440L470 949L545 1200H806L600 627L810 0H549L468 302L440 546H390L362 302L279 0H18Z" />
<glyph unicode="y" horiz-adv-x="892" d="M221 -419Q187 -419 146 -415T68 -405V-208Q97 -210 143 -211T221 -213Q306 -213 339 -190T382 -108L399 0H251L36 1200H310L369 649L419 195H491L532 649L588 1200H862L651 -87Q633 -195 592 -269T464 -381T221 -419Z" />
<glyph unicode="z" horiz-adv-x="793" d="M42 0V168L469 1005L51 1004V1199L757 1200V1027L323 195H750V0H42Z" />
<glyph unicode="{" horiz-adv-x="776" d="M716 -403Q587 -403 481 -369T312 -256T248 -44Q248 -21 249 21T253 115T257 217T260 307T262 364Q262 445 231 464T144 484H60V710H144Q200 710 231 729T262 829Q262 847 261 886T258 977T254 1079T251 1174T250 1240Q250
1374 313 1453T481 1566T716 1600V1470Q663 1470 617 1438T542 1354T513 1240Q513 1222 514 1191T517 1122T520 1045T523 971T524 910Q524 795 477 715T330 617V579Q429 562 476 482T524 287Q524 261 523 226T521 152T517 75T514 6T513 -44Q513 -105 541 -157T616
-242T716 -274V-403Z" />
<glyph unicode="|" horiz-adv-x="438" d="M86 1837H352V-240H86V1837Z" />
<glyph unicode="}" horiz-adv-x="776" d="M60 -403V-274Q113 -274 159 -242T234 -158T263 -44Q263 -25 262 5T260 74T256 152T253 226T252 287Q252 401 300 481T446 579V617Q348 634 300 714T252 910Q252 935 253 970T256 1045T259 1122T262 1191T263 1240Q263
1302 235 1354T160 1438T60 1470V1600Q189 1600 295 1566T463 1453T526 1240Q526 1217 525 1174T522 1080T519 977T516 887T514 829Q514 748 545 729T632 710H716V484H632Q576 484 545 465T514 364Q514 346 515 307T519 218T523 116T526 22T528 -44Q528 -177 465
-255T296 -368T60 -403Z" />
<glyph unicode="~" horiz-adv-x="1071" d="M705 578Q642 579 596 599T511 645T438 691T359 714Q305 716 273 685T235 596H86Q97 767 175 838T369 906Q438 904 484 885T566 839T635 794T711 773Q767 772 800 798T836 874H985Q978 716 902 646T705 578Z" />
<glyph unicode="&#xa0;" horiz-adv-x="434" />
<glyph unicode="&#xa1;" horiz-adv-x="522" d="M142 791H338L373 258V-400H107V258L142 791ZM62 1200H418V943H62V1200Z" />
<glyph unicode="&#xa2;" horiz-adv-x="920" d="M347 0V190Q214 211 152 288T80 513Q77 562 76 640T75 806T76 968T80 1083Q89 1233 152 1311T347 1410V1600H581V1412Q718 1393 782 1317T852 1093Q853 1060 853 1013T850 949H587Q588 972 588 1005T589 1070T587
1123Q585 1172 561 1196T469 1220Q403 1220 377 1198T349 1123Q346 1031 345 952T344 798T345 647T349 484Q351 428 379 404T472 380Q538 380 561 406T587 486Q589 517 589 556T587 654H850Q852 636 853 592T852 513Q845 363 782 285T581 188V0H347Z" />
<glyph unicode="&#xa3;" horiz-adv-x="1035" d="M135 0V227Q167 244 190 293T225 423T238 611Q238 652 235 688T225 757H86V889H191Q175 942 159 995T133 1110T124 1250Q126 1421 221 1519T529 1618Q739 1618 832 1533T930 1248Q931 1207 931 1178T931 1111T929
1009H661Q662 1037 662 1078T663 1163T664 1243T662 1296Q661 1349 627 1375T529 1402Q463 1402 428 1376T392 1296Q392 1229 405 1165T437 1033T472 889H666V757H490Q493 731 494 704T496 647Q496 522 466 425T384 270V233H948V0H135Z" />
<glyph unicode="&#xa4;" horiz-adv-x="1188" d="M203 47L93 141L245 319Q224 360 213 414T197 536Q195 580 194 644T192 781T193 920T197 1032Q201 1100 213 1154T247 1250L86 1432L191 1525L345 1353Q432 1402 597 1402Q755 1402 842 1356L996 1522L1101 1425L943
1255Q966 1213 978 1158T995 1032Q997 986 998 921T1000 785T999 648T995 536Q991 463 978 407T941 306L1082 143L974 48L835 207Q752 165 597 165Q432 165 345 213L203 47ZM597 363Q668 363 697 390T728 471Q732 560 733 638T735 789T734 938T728 1097Q727 1150
697 1176T597 1203Q527 1203 496 1175T461 1096Q459 1031 458 956T457 800T458 637T463 472Q465 418 496 391T597 363Z" />
<glyph unicode="&#xa5;" horiz-adv-x="878" d="M307 0V148H117V280H307V345H117V477H307V521H270L21 1600H291L375 1196L410 729H468L504 1196L587 1600H857L606 521H571V477H763V345H571V280H763V148H571V0H307Z" />
<glyph unicode="&#xa6;" horiz-adv-x="438" d="M86 1837H352V1016H86V1837ZM86 536H352V-240H86V536Z" />
<glyph unicode="&#xa7;" horiz-adv-x="931" d="M457 -419Q330 -419 253 -392T138 -299T96 -114Q95 -92 95 -57T95 10T98 54H335Q333 11 333 -16T332 -66T334 -116Q337 -173 367 -196T457 -220Q528 -220 560 -196T592 -114Q592 -78 592 -44T592 26Q592 66 578 90T513
126L382 162Q251 197 172 262T89 455Q87 507 87 557T89 668Q92 763 133 821T237 906V943Q177 962 136 1004T88 1132Q86 1171 86 1220T89 1304Q101 1424 136 1488T249 1577T470 1601Q661 1601 742 1526T830 1276Q832 1250 832 1203T828 1115H583Q584 1146 584 1183T585
1253T583 1305Q580 1359 555 1372T470 1385Q405 1385 382 1372T352 1307Q349 1279 348 1227T350 1130Q352 1085 366 1058T437 1017L562 989Q696 959 765 874T842 660Q845 593 845 553T841 458Q836 378 797 325T698 249V219Q763 196 802 144T844 17Q845 -12 844
-49T841 -113Q833 -229 796 -295T677 -390T457 -419ZM473 357Q543 357 568 385T599 462Q603 493 604 529T605 601T599 670Q594 716 569 744T473 773Q406 773 377 745T343 670Q337 616 338 561T343 462Q350 413 378 385T473 357Z" />
<glyph unicode="&#xa8;" horiz-adv-x="709" d="M408 1310V1492H590V1310H408ZM120 1310V1492H302V1310H120Z" />
<glyph unicode="&#xa9;" horiz-adv-x="1348" d="M675 -10Q483 -10 352 59T154 265T86 600Q86 799 153 935T352 1140T675 1210Q962 1210 1111 1054T1261 600Q1261 401 1195 265T997 60T675 -10ZM675 116Q890 116 1003 239T1116 600Q1116 837 1003 960T675 1084Q458
1084 345 961T232 600Q232 363 345 240T675 116ZM677 224Q555 224 498 273T433 440Q432 466 432 508T431 599T431 689T433 753Q440 871 496 921T676 971Q800 971 853 922T915 761Q916 743 916 725T913 697H752Q754 714 753 739T752 779Q752 816 734 831T676 846Q636
846 619 831T599 777Q596 723 596 662T598 539T599 420Q600 380 619 365T677 349Q716 349 732 364T752 420Q754 438 754 454T752 503H913Q915 491 916 475T915 439Q907 324 854 274T677 224Z" />
<glyph unicode="&#xaa;" horiz-adv-x="810" d="M309 754Q200 754 152 800T88 955Q87 965 87 983T88 1016Q97 1103 150 1152T333 1242Q377 1256 420 1265T515 1285Q515 1312 514 1339T511 1395Q510 1427 494 1446T416 1465Q374 1465 352 1452T323 1400Q322 1395
322 1368T323 1315T325 1284H119Q118 1289 117 1306T116 1346T117 1389Q124 1505 191 1562T423 1619Q539 1619 603 1591T693 1503T722 1346Q723 1306 723 1251T724 1134T724 1007T723 880T722 766H509Q509 790 510 812T511 856H480Q454 806 417 780T309 754ZM394
902Q434 902 467 920T516 962Q517 1012 517 1058T517 1152Q481 1145 445 1137T383 1119Q334 1104 318 1077T297 1018Q297 1006 297 992T298 972Q298 936 326 919T394 902Z" />
<glyph unicode="&#xab;" horiz-adv-x="812" d="M626 840L282 506V750L626 1084V840ZM626 172L282 506V750L626 416V172ZM725 840L381 506V750L725 1084V840ZM725 172L381 506V750L725 416V172Z" />
<glyph unicode="&#xac;" horiz-adv-x="1033" d="M743 437V805H86V1005H947V437H743Z" />
<glyph unicode="&#xad;" horiz-adv-x="878" d="M60 604V837H818V604H60Z" />
<glyph unicode="&#xae;" horiz-adv-x="953" d="M478 979Q288 979 187 1080T86 1373Q86 1566 187 1667T478 1769Q668 1769 767 1668T867 1373Q867 1182 768 1081T478 979ZM478 1060Q633 1060 708 1137T784 1373Q784 1534 709 1610T478 1687Q323 1687 246 1611T169
1373Q169 1215 246 1138T478 1060ZM361 1176V1600H485Q552 1600 583 1575T618 1488Q618 1485 618 1476T618 1458Q617 1426 601 1406T550 1377V1364Q585 1355 600 1337T616 1282Q617 1268 618 1251T619 1216T618 1176H525Q526 1204 524 1236T522 1295Q522 1335 485
1335H455V1176H361ZM455 1415H486Q505 1415 515 1423T525 1449Q525 1460 525 1470T525 1494Q524 1520 485 1520H455V1415Z" />
<glyph unicode="&#xaf;" horiz-adv-x="931" d="M111 1412H768V1291H111V1412Z" />
<glyph unicode="&#xb0;" horiz-adv-x="651" d="M326 1182Q261 1182 207 1212T119 1291T86 1400Q86 1460 119 1510T206 1590T326 1620Q390 1620 444 1590T531 1510T564 1400Q564 1341 531 1292T444 1212T326 1182ZM326 1289Q379 1289 416 1321T453 1400Q453 1448
416 1480T326 1513Q273 1513 235 1481T197 1400Q197 1354 235 1322T326 1289Z" />
<glyph unicode="&#xb1;" horiz-adv-x="1073" d="M435 469V628H86V827H435V1037H638V827H987V628H638V469H435ZM86 221V382H987V221H86Z" />
<glyph unicode="&#xb2;" horiz-adv-x="652" d="M75 878Q74 953 74 983T75 1037Q77 1107 126 1158T259 1245L342 1280Q373 1293 382 1308T395 1348Q397 1370 397 1385T395 1419Q394 1434 379 1445T332 1456Q273 1456 271 1419Q268 1392 270 1359T273 1312H78Q77
1333 76 1351T76 1394Q81 1503 148 1556T330 1609Q460 1609 526 1554T593 1394Q593 1386 593 1380T593 1367T593 1350Q593 1275 547 1225T419 1143L320 1105Q304 1098 291 1086T278 1060V1045H573V878H75Z" />
<glyph unicode="&#xb3;" horiz-adv-x="660" d="M333 869Q202 869 131 920T60 1071Q59 1077 59 1082T59 1095T61 1111H258Q255 1102 255 1092T256 1072Q256 1050 274 1036T327 1022Q363 1022 380 1034T398 1067Q398 1083 398 1095T398 1122Q397 1148 379 1161T325
1174H202L196 1313L337 1433H78V1600H582L581 1437L419 1317Q504 1306 550 1259T596 1125Q597 1117 597 1107T597 1086T596 1069Q596 974 529 922T333 869Z" />
<glyph unicode="&#xb4;" horiz-adv-x="552" d="M88 1280L275 1547H466L269 1280H88Z" />
<glyph unicode="&#xb5;" horiz-adv-x="1020" d="M90 -400L86 1200H354L356 276Q357 224 384 200T465 175Q513 175 562 200T632 269V1200H901V236Q901 161 909 99T933 0H665Q655 23 648 54T637 125H593Q561 71 525 39T442 -7Q404 -16 358 -15V-400H90Z" />
<glyph unicode="&#xb6;" horiz-adv-x="1136" d="M553 -200V695H482Q354 695 270 727T142 839T88 1066Q86 1091 86 1127T87 1194T88 1231Q95 1365 135 1446T259 1563T482 1600H1050V1457H959V-200H792V1457H720V-200H553Z" />
<glyph unicode="&#xb7;" horiz-adv-x="365" d="M83 736V934H282V736H83Z" />
<glyph unicode="&#xb8;" horiz-adv-x="492" d="M76 -328V-199H136Q196 -199 220 -175T235 -94L219 0H359L375 -94Q393 -217 335 -272T136 -328H76Z" />
<glyph unicode="&#xb9;" horiz-adv-x="431" d="M145 883V1446H32L28 1511L189 1603H349V883H145Z" />
<glyph unicode="&#xba;" horiz-adv-x="818" d="M408 752Q243 752 171 813T91 1030Q90 1050 89 1081T87 1148T86 1221T88 1290T91 1343Q100 1442 130 1502T226 1591T405 1619Q582 1619 651 1553T729 1343Q730 1321 731 1289T732 1219T733 1146T732 1080T729 1030Q720
934 691 873T595 782T408 752ZM411 906Q468 906 491 924T516 978Q519 1040 520 1092T522 1193T521 1291T516 1397Q515 1430 491 1447T411 1465Q355 1465 330 1447T303 1395Q299 1313 298 1253T297 1131T303 978Q305 943 330 925T411 906Z" />
<glyph unicode="&#xbb;" horiz-adv-x="761" d="M390 840V1084L735 750V506L390 840ZM390 172V416L735 750V506L390 172ZM36 840V1084L381 750V506L36 840ZM36 172V416L381 750V506L36 172Z" />
<glyph unicode="&#xbc;" horiz-adv-x="1157" d="M145 882V1445H32L28 1510L189 1602H349V882H145ZM-142 0L883 1600H1082L55 0H-142ZM1019 720V318H1115V153H1019V0H834V153H543V312L768 720H1019ZM834 318L860 461L882 553H848L801 461L738 318H834Z" />
<glyph unicode="&#xbd;" horiz-adv-x="1185" d="M145 882V1445H32L28 1510L189 1602H349V882H145ZM-142 0L883 1600H1082L55 0H-142ZM608 0Q607 75 607 105T608 159Q610 229 659 280T792 367L875 402Q906 415 915 430T928 470Q930 492 930 507T928 541Q927 556
912 567T865 578Q806 578 804 541Q801 514 803 481T806 434H611Q610 455 609 473T609 516Q614 625 681 678T863 731Q993 731 1059 676T1126 516Q1126 508 1126 502T1126 489T1126 472Q1126 397 1080 347T952 265L853 227Q837 220 824 208T811 182V167H1106V0H608Z"
/>
<glyph unicode="&#xbe;" horiz-adv-x="1453" d="M333 869Q202 869 131 920T60 1071Q59 1077 59 1082T59 1095T61 1111H258Q255 1102 255 1092T256 1072Q256 1050 274 1036T327 1022Q363 1022 380 1034T398 1067Q398 1083 398 1095T398 1122Q397 1148 379 1161T325
1174H202L196 1313L337 1433H78V1600H582L581 1437L419 1317Q504 1306 550 1259T596 1125Q597 1117 597 1107T597 1086T596 1069Q596 974 529 922T333 869ZM154 0L1179 1600H1378L351 0H154ZM1315 720V318H1411V153H1315V0H1130V153H839V312L1064 720H1315ZM1130
318L1156 461L1178 553H1144L1097 461L1034 318H1130Z" />
<glyph unicode="&#xbf;" horiz-adv-x="967" d="M489 -422Q256 -422 155 -330T54 -28Q54 -3 54 23T53 76T53 130Q54 241 74 307T126 410T192 466T256 499L307 524Q354 547 363 586T378 667L386 763H611L615 667Q621 589 612 530T565 420T445 318L407 295Q382 280
370 254T354 195T350 129V-81Q350 -130 385 -157T487 -184Q551 -184 584 -157T620 -81Q625 -20 625 45T622 163H910Q912 117 913 88T914 34T912 -28Q900 -239 804 -330T489 -422ZM320 943V1200H676V943H320Z" />
<glyph unicode="&#xc0;" horiz-adv-x="965" d="M40 0L250 1600H715L925 0H653L618 364H347L312 0H40ZM372 597H593L558 947L529 1366H436L407 947L372 597ZM366 1680L186 1947H377L547 1680H366Z" />
<glyph unicode="&#xc1;" horiz-adv-x="965" d="M40 0L250 1600H715L925 0H653L618 364H347L312 0H40ZM372 597H593L558 947L529 1366H436L407 947L372 597ZM401 1680L588 1947H779L582 1680H401Z" />
<glyph unicode="&#xc2;" horiz-adv-x="965" d="M40 0L250 1600H715L925 0H653L618 364H347L312 0H40ZM372 597H593L558 947L529 1366H436L407 947L372 597ZM225 1682L398 1949H560L733 1682H555L479 1811L403 1682H225Z" />
<glyph unicode="&#xc3;" horiz-adv-x="965" d="M40 0L250 1600H715L925 0H653L618 364H347L312 0H40ZM372 597H593L558 947L529 1366H436L407 947L372 597ZM641 1888H747Q741 1780 701 1732T586 1683Q540 1683 513 1697T467 1729T430 1761T383 1775Q354 1775 342
1756T324 1696H218Q227 1809 267 1860T385 1911Q431 1911 457 1898T501 1866T537 1834T585 1820Q615 1820 627 1838T641 1888Z" />
<glyph unicode="&#xc4;" horiz-adv-x="965" d="M40 0L250 1600H715L925 0H653L618 364H347L312 0H40ZM372 597H593L558 947L529 1366H436L407 947L372 597ZM536 1710V1892H718V1710H536ZM248 1710V1892H430V1710H248Z" />
<glyph unicode="&#xc5;" horiz-adv-x="965" d="M40 0L250 1600H715L925 0H653L618 364H347L312 0H40ZM372 597H593L558 947L529 1366H436L407 947L372 597ZM482 1670Q400 1670 341 1729T281 1872Q281 1956 340 2015T482 2074Q566 2074 625 2015T685 1872Q685 1789
626 1730T482 1670ZM482 1810Q509 1810 527 1828T545 1872Q545 1899 527 1917T482 1935Q457 1935 439 1917T420 1872Q420 1847 438 1829T482 1810Z" />
<glyph unicode="&#xc6;" horiz-adv-x="1391" d="M40 0L362 1600H1335V1366H918V929H1315V695H918V234H1335V0H653V362H403L329 0H40ZM452 595H653V1367H564L512 879L452 595Z" />
<glyph unicode="&#xc7;" horiz-adv-x="983" d="M500 -19Q286 -19 191 67T90 352Q88 472 87 582T86 800T87 1018T90 1251Q93 1443 191 1530T499 1618Q705 1618 802 1528T905 1249Q906 1212 906 1171T906 1090T903 1011H639Q640 1052 641 1094T642 1179T640 1263Q639
1338 607 1369T499 1401Q424 1401 391 1370T355 1263Q352 1141 351 1027T349 800T350 574T355 338Q357 262 391 230T500 198Q578 198 611 230T648 338Q650 382 650 420T651 499T648 594H913Q915 534 915 470T913 352Q907 153 812 67T500 -19ZM280 -311V-182H340Q400
-182 424 -158T439 -77L423 17H563L579 -77Q597 -200 539 -255T340 -311H280Z" />
<glyph unicode="&#xc8;" horiz-adv-x="843" d="M105 0V1600H787V1366H370V929H767V695H370V234H787V0H105ZM330 1679L150 1946H341L511 1679H330Z" />
<glyph unicode="&#xc9;" horiz-adv-x="843" d="M105 0V1600H787V1366H370V929H767V695H370V234H787V0H105ZM365 1679L552 1946H743L546 1679H365Z" />
<glyph unicode="&#xca;" horiz-adv-x="843" d="M105 0V1600H787V1366H370V929H767V695H370V234H787V0H105ZM189 1681L362 1948H524L697 1681H519L443 1810L367 1681H189Z" />
<glyph unicode="&#xcb;" horiz-adv-x="843" d="M105 0V1600H787V1366H370V929H767V695H370V234H787V0H105ZM500 1709V1891H682V1709H500ZM212 1709V1891H394V1709H212Z" />
<glyph unicode="&#xcc;" horiz-adv-x="475" d="M105 0V1600H370V0H105ZM121 1680L-59 1947H132L302 1680H121Z" />
<glyph unicode="&#xcd;" horiz-adv-x="475" d="M105 0V1600H370V0H105ZM156 1680L343 1947H534L337 1680H156Z" />
<glyph unicode="&#xce;" horiz-adv-x="475" d="M105 0V1600H370V0H105ZM-20 1682L153 1949H315L488 1682H310L234 1811L158 1682H-20Z" />
<glyph unicode="&#xcf;" horiz-adv-x="475" d="M105 0V1600H370V0H105ZM291 1710V1892H473V1710H291ZM3 1710V1892H185V1710H3Z" />
<glyph unicode="&#xd0;" horiz-adv-x="1074" d="M86 946H571V816H86V946ZM190 0V1600H585Q794 1600 887 1513T983 1226Q986 1074 987 938T987 665T983 376Q980 175 888 88T588 0H190ZM455 234H588Q653 234 685 262T719 345Q722 464 723 577T725 801T724 1025T719
1256Q718 1311 685 1338T585 1366H455V234Z" />
<glyph unicode="&#xd1;" horiz-adv-x="1180" d="M105 0V1600H557L669 1091L785 234H875L828 944L808 1600H1075V0H603L488 536L398 1368H305L348 610L370 0H105ZM749 1888H855Q849 1780 809 1732T694 1683Q648 1683 621 1697T575 1729T538 1761T491 1775Q462 1775
450 1756T432 1696H326Q335 1809 375 1860T493 1911Q539 1911 565 1898T609 1866T645 1834T693 1820Q723 1820 735 1838T749 1888Z" />
<glyph unicode="&#xd2;" horiz-adv-x="1001" d="M499 -18Q285 -18 190 68T90 354Q88 477 87 586T86 801T87 1016T90 1247Q95 1447 190 1532T499 1618Q711 1618 805 1533T906 1247Q911 1126 913 1017T915 801T913 586T906 354Q900 154 806 68T499 -18ZM499 199Q576
199 608 231T642 341Q646 462 649 575T652 800T649 1026T642 1261Q641 1337 609 1369T499 1402Q424 1402 391 1370T355 1261Q350 1141 348 1028T346 803T348 577T355 341Q357 263 390 231T499 199ZM384 1680L204 1947H395L565 1680H384Z" />
<glyph unicode="&#xd3;" horiz-adv-x="1001" d="M499 -18Q285 -18 190 68T90 354Q88 477 87 586T86 801T87 1016T90 1247Q95 1447 190 1532T499 1618Q711 1618 805 1533T906 1247Q911 1126 913 1017T915 801T913 586T906 354Q900 154 806 68T499 -18ZM499 199Q576
199 608 231T642 341Q646 462 649 575T652 800T649 1026T642 1261Q641 1337 609 1369T499 1402Q424 1402 391 1370T355 1261Q350 1141 348 1028T346 803T348 577T355 341Q357 263 390 231T499 199ZM419 1680L606 1947H797L600 1680H419Z" />
<glyph unicode="&#xd4;" horiz-adv-x="1001" d="M499 -18Q285 -18 190 68T90 354Q88 477 87 586T86 801T87 1016T90 1247Q95 1447 190 1532T499 1618Q711 1618 805 1533T906 1247Q911 1126 913 1017T915 801T913 586T906 354Q900 154 806 68T499 -18ZM499 199Q576
199 608 231T642 341Q646 462 649 575T652 800T649 1026T642 1261Q641 1337 609 1369T499 1402Q424 1402 391 1370T355 1261Q350 1141 348 1028T346 803T348 577T355 341Q357 263 390 231T499 199ZM243 1682L416 1949H578L751 1682H573L497 1811L421 1682H243Z"
/>
<glyph unicode="&#xd5;" horiz-adv-x="1001" d="M499 -18Q285 -18 190 68T90 354Q88 477 87 586T86 801T87 1016T90 1247Q95 1447 190 1532T499 1618Q711 1618 805 1533T906 1247Q911 1126 913 1017T915 801T913 586T906 354Q900 154 806 68T499 -18ZM499 199Q576
199 608 231T642 341Q646 462 649 575T652 800T649 1026T642 1261Q641 1337 609 1369T499 1402Q424 1402 391 1370T355 1261Q350 1141 348 1028T346 803T348 577T355 341Q357 263 390 231T499 199ZM659 1888H765Q759 1780 719 1732T604 1683Q558 1683 531 1697T485
1729T448 1761T401 1775Q372 1775 360 1756T342 1696H236Q245 1809 285 1860T403 1911Q449 1911 475 1898T519 1866T555 1834T603 1820Q633 1820 645 1838T659 1888Z" />
<glyph unicode="&#xd6;" horiz-adv-x="1001" d="M499 -18Q285 -18 190 68T90 354Q88 477 87 586T86 801T87 1016T90 1247Q95 1447 190 1532T499 1618Q711 1618 805 1533T906 1247Q911 1126 913 1017T915 801T913 586T906 354Q900 154 806 68T499 -18ZM499 199Q576
199 608 231T642 341Q646 462 649 575T652 800T649 1026T642 1261Q641 1337 609 1369T499 1402Q424 1402 391 1370T355 1261Q350 1141 348 1028T346 803T348 577T355 341Q357 263 390 231T499 199ZM554 1710V1892H736V1710H554ZM266 1710V1892H448V1710H266Z" />
<glyph unicode="&#xd7;" horiz-adv-x="963" d="M230 352L86 493L335 727L86 962L230 1102L481 865L732 1102L876 962L627 727L876 493L732 352L481 589L230 352Z" />
<glyph unicode="&#xd8;" horiz-adv-x="1001" d="M499 -18Q285 -18 190 68T90 354Q88 477 87 586T86 801T87 1016T90 1247Q95 1447 190 1532T499 1618Q711 1618 805 1533T906 1247Q911 1126 913 1017T915 801T913 586T906 354Q900 154 806 68T499 -18ZM499 199Q576
199 608 231T642 341Q645 430 647 512T650 675T651 838L351 423Q353 402 353 382T355 341Q357 263 390 231T499 199ZM346 730L645 1147Q645 1175 644 1203T642 1261Q641 1337 609 1369T499 1402Q424 1402 391 1370T355 1261Q351 1167 349 1079T346 905T346 730Z"
/>
<glyph unicode="&#xd9;" horiz-adv-x="997" d="M499 -18Q283 -18 189 67T91 351Q87 662 87 976T91 1600H356Q352 1393 352 1177T352 745T355 321Q355 261 391 230T499 199Q571 199 606 230T641 321Q643 528 644 744T646 1177T641 1600H906Q911 1290 911 976T906
351Q903 153 809 68T499 -18ZM382 1680L202 1947H393L563 1680H382Z" />
<glyph unicode="&#xda;" horiz-adv-x="997" d="M499 -18Q283 -18 189 67T91 351Q87 662 87 976T91 1600H356Q352 1393 352 1177T352 745T355 321Q355 261 391 230T499 199Q571 199 606 230T641 321Q643 528 644 744T646 1177T641 1600H906Q911 1290 911 976T906
351Q903 153 809 68T499 -18ZM418 1680L605 1947H796L599 1680H418Z" />
<glyph unicode="&#xdb;" horiz-adv-x="997" d="M499 -18Q283 -18 189 67T91 351Q87 662 87 976T91 1600H356Q352 1393 352 1177T352 745T355 321Q355 261 391 230T499 199Q571 199 606 230T641 321Q643 528 644 744T646 1177T641 1600H906Q911 1290 911 976T906
351Q903 153 809 68T499 -18ZM242 1682L415 1949H577L750 1682H572L496 1811L420 1682H242Z" />
<glyph unicode="&#xdc;" horiz-adv-x="997" d="M499 -18Q283 -18 189 67T91 351Q87 662 87 976T91 1600H356Q352 1393 352 1177T352 745T355 321Q355 261 391 230T499 199Q571 199 606 230T641 321Q643 528 644 744T646 1177T641 1600H906Q911 1290 911 976T906
351Q903 153 809 68T499 -18ZM553 1710V1892H735V1710H553ZM265 1710V1892H447V1710H265Z" />
<glyph unicode="&#xdd;" horiz-adv-x="878" d="M306 0V521H270L21 1600H291L372 1196L410 729H468L505 1196L587 1600H857L606 521H571V0H306ZM359 1680L546 1947H737L540 1680H359Z" />
<glyph unicode="&#xde;" horiz-adv-x="919" d="M86 0V1600H351V1347H477Q682 1347 773 1264T871 990Q875 894 875 814T871 642Q865 451 774 368T476 285H351V0H86ZM351 518H476Q542 518 573 546T607 628Q610 686 611 751T611 880T607 1003Q604 1058 573 1085T477
1113H351V518Z" />
<glyph unicode="&#xdf;" horiz-adv-x="970" d="M86 0V1230Q86 1345 121 1427T245 1555T496 1600Q710 1600 802 1516T896 1238Q896 1195 896 1165T894 1087Q888 980 846 920T717 833V792Q812 766 858 703T908 529Q909 496 909 474T910 427T908 362Q902 221 853
143T714 32T493 0H451V233H493Q562 233 599 266T638 366Q639 406 639 442T638 517Q637 625 597 660T489 695H461V929H481Q552 929 589 971T628 1093Q628 1133 628 1157T627 1205T626 1269Q626 1327 592 1355T489 1384Q419 1384 389 1353T358 1270V0H86Z" />
<glyph unicode="&#xe0;" horiz-adv-x="947" d="M338 -15Q204 -15 139 48T60 261Q59 280 59 306T60 351Q66 430 96 487T191 589T365 673Q421 693 474 708T593 741V911Q593 968 564 994T471 1020Q415 1020 386 998T354 924Q353 908 353 870T352 795T354 749H98Q97
769 96 811T96 894Q100 1006 137 1078T257 1184T480 1219Q623 1219 704 1182T819 1063T853 852L851 0H588V125H548Q514 54 469 20T338 -15ZM443 175Q491 175 530 199T590 265L592 564Q552 554 511 542T430 511Q366 483 348 441T326 351Q325 325 325 313T326 280Q331
230 360 203T443 175ZM358 1280L178 1547H369L539 1280H358Z" />
<glyph unicode="&#xe1;" horiz-adv-x="947" d="M338 -15Q204 -15 139 48T60 261Q59 280 59 306T60 351Q66 430 96 487T191 589T365 673Q421 693 474 708T593 741V911Q593 968 564 994T471 1020Q415 1020 386 998T354 924Q353 908 353 870T352 795T354 749H98Q97
769 96 811T96 894Q100 1006 137 1078T257 1184T480 1219Q623 1219 704 1182T819 1063T853 852L851 0H588V125H548Q514 54 469 20T338 -15ZM443 175Q491 175 530 199T590 265L592 564Q552 554 511 542T430 511Q366 483 348 441T326 351Q325 325 325 313T326 280Q331
230 360 203T443 175ZM393 1280L580 1547H771L574 1280H393Z" />
<glyph unicode="&#xe2;" horiz-adv-x="947" d="M338 -15Q204 -15 139 48T60 261Q59 280 59 306T60 351Q66 430 96 487T191 589T365 673Q421 693 474 708T593 741V911Q593 968 564 994T471 1020Q415 1020 386 998T354 924Q353 908 353 870T352 795T354 749H98Q97
769 96 811T96 894Q100 1006 137 1078T257 1184T480 1219Q623 1219 704 1182T819 1063T853 852L851 0H588V125H548Q514 54 469 20T338 -15ZM443 175Q491 175 530 199T590 265L592 564Q552 554 511 542T430 511Q366 483 348 441T326 351Q325 325 325 313T326 280Q331
230 360 203T443 175ZM217 1282L390 1549H552L725 1282H547L471 1411L395 1282H217Z" />
<glyph unicode="&#xe3;" horiz-adv-x="947" d="M338 -15Q204 -15 139 48T60 261Q59 280 59 306T60 351Q66 430 96 487T191 589T365 673Q421 693 474 708T593 741V911Q593 968 564 994T471 1020Q415 1020 386 998T354 924Q353 908 353 870T352 795T354 749H98Q97
769 96 811T96 894Q100 1006 137 1078T257 1184T480 1219Q623 1219 704 1182T819 1063T853 852L851 0H588V125H548Q514 54 469 20T338 -15ZM443 175Q491 175 530 199T590 265L592 564Q552 554 511 542T430 511Q366 483 348 441T326 351Q325 325 325 313T326 280Q331
230 360 203T443 175ZM633 1488H739Q733 1380 693 1332T578 1283Q532 1283 505 1297T459 1329T422 1361T375 1375Q346 1375 334 1356T316 1296H210Q219 1409 259 1460T377 1511Q423 1511 449 1498T493 1466T529 1434T577 1420Q607 1420 619 1438T633 1488Z" />
<glyph unicode="&#xe4;" horiz-adv-x="947" d="M338 -15Q204 -15 139 48T60 261Q59 280 59 306T60 351Q66 430 96 487T191 589T365 673Q421 693 474 708T593 741V911Q593 968 564 994T471 1020Q415 1020 386 998T354 924Q353 908 353 870T352 795T354 749H98Q97
769 96 811T96 894Q100 1006 137 1078T257 1184T480 1219Q623 1219 704 1182T819 1063T853 852L851 0H588V125H548Q514 54 469 20T338 -15ZM443 175Q491 175 530 199T590 265L592 564Q552 554 511 542T430 511Q366 483 348 441T326 351Q325 325 325 313T326 280Q331
230 360 203T443 175ZM528 1310V1492H710V1310H528ZM240 1310V1492H422V1310H240Z" />
<glyph unicode="&#xe5;" horiz-adv-x="947" d="M338 -15Q204 -15 139 48T60 261Q59 280 59 306T60 351Q66 430 96 487T191 589T365 673Q421 693 474 708T593 741V911Q593 968 564 994T471 1020Q415 1020 386 998T354 924Q353 908 353 870T352 795T354 749H98Q97
769 96 811T96 894Q100 1006 137 1078T257 1184T480 1219Q623 1219 704 1182T819 1063T853 852L851 0H588V125H548Q514 54 469 20T338 -15ZM443 175Q491 175 530 199T590 265L592 564Q552 554 511 542T430 511Q366 483 348 441T326 351Q325 325 325 313T326 280Q331
230 360 203T443 175ZM474 1270Q392 1270 333 1329T273 1472Q273 1556 332 1615T474 1674Q558 1674 617 1615T677 1472Q677 1389 618 1330T474 1270ZM474 1410Q501 1410 519 1428T537 1472Q537 1499 519 1517T474 1535Q449 1535 431 1517T412 1472Q412 1447 430
1429T474 1410Z" />
<glyph unicode="&#xe6;" horiz-adv-x="1390" d="M325 -15Q209 -15 140 47T60 259Q59 285 59 307T60 351Q69 470 141 541T355 664Q409 685 461 700T567 730Q567 761 567 791T567 852T567 914Q567 939 561 963T533 1004T460 1020Q403 1020 382 998T357 923Q356 902
356 869T355 802T357 749H96Q95 760 94 787T93 845T94 895Q99 1007 136 1079T253 1185T467 1219Q549 1219 608 1206T707 1169Q753 1194 813 1206T950 1219Q1141 1219 1228 1144T1323 894Q1324 876 1324 837T1325 748T1325 648T1321 558H832Q832 490 832 422T832
286Q832 228 863 204T954 180Q1018 180 1038 207T1061 284Q1063 337 1063 370T1062 454H1321Q1324 439 1324 393T1323 314Q1315 136 1229 59T955 -19Q823 -19 739 15T612 125H590Q555 52 483 19T325 -15ZM435 175Q464 175 494 188T545 245T569 378Q569 412 568
459T567 556Q533 547 494 534T422 506Q368 479 348 440T323 351Q322 330 322 314T325 279Q333 231 357 203T435 175ZM832 743H1062Q1063 788 1062 839T1061 924Q1060 975 1034 997T950 1020Q891 1020 862 998T832 923Q832 878 832 833T832 743Z" />
<glyph unicode="&#xe7;" horiz-adv-x="920" d="M587 749Q588 772 588 804T589 869T587 923Q585 972 561 996T469 1020Q403 1020 377 998T349 923Q346 831 345 752T344 598T345 447T349 284Q351 228 379 204T473 180Q538 180 561 206T587 286Q589 319 589 357T587
454H850Q852 436 853 392T852 313Q844 136 756 59T473 -19Q267 -19 179 60T80 313Q77 367 76 444T75 606T76 765T80 883Q92 1064 182 1141T469 1219Q667 1219 755 1143T852 893Q854 858 853 812T850 749H587ZM242 -311V-182H302Q362 -182 386 -158T401 -77L385
17H525L541 -77Q559 -200 501 -255T302 -311H242Z" />
<glyph unicode="&#xe8;" horiz-adv-x="919" d="M473 -19Q267 -19 179 60T80 314Q77 367 76 445T75 607T76 765T80 883Q92 1064 183 1141T470 1219Q667 1219 755 1143T852 894Q853 870 853 813T854 685T850 555H344Q344 490 345 424T349 284Q351 228 379 204T472
180Q535 180 559 204T587 286Q589 316 589 356T587 454H850Q852 437 853 392T852 314Q843 136 756 59T473 -19ZM345 740H589Q589 779 589 817T589 883T587 922Q584 975 558 997T470 1020Q403 1020 377 997T349 922Q348 875 347 830T345 740ZM349 1280L169 1547H360L530
1280H349Z" />
<glyph unicode="&#xe9;" horiz-adv-x="919" d="M473 -19Q267 -19 179 60T80 314Q77 367 76 445T75 607T76 765T80 883Q92 1064 183 1141T470 1219Q667 1219 755 1143T852 894Q853 870 853 813T854 685T850 555H344Q344 490 345 424T349 284Q351 228 379 204T472
180Q535 180 559 204T587 286Q589 316 589 356T587 454H850Q852 437 853 392T852 314Q843 136 756 59T473 -19ZM345 740H589Q589 779 589 817T589 883T587 922Q584 975 558 997T470 1020Q403 1020 377 997T349 922Q348 875 347 830T345 740ZM384 1280L571 1547H762L565
1280H384Z" />
<glyph unicode="&#xea;" horiz-adv-x="919" d="M473 -19Q267 -19 179 60T80 314Q77 367 76 445T75 607T76 765T80 883Q92 1064 183 1141T470 1219Q667 1219 755 1143T852 894Q853 870 853 813T854 685T850 555H344Q344 490 345 424T349 284Q351 228 379 204T472
180Q535 180 559 204T587 286Q589 316 589 356T587 454H850Q852 437 853 392T852 314Q843 136 756 59T473 -19ZM345 740H589Q589 779 589 817T589 883T587 922Q584 975 558 997T470 1020Q403 1020 377 997T349 922Q348 875 347 830T345 740ZM208 1282L381 1549H543L716
1282H538L462 1411L386 1282H208Z" />
<glyph unicode="&#xeb;" horiz-adv-x="919" d="M473 -19Q267 -19 179 60T80 314Q77 367 76 445T75 607T76 765T80 883Q92 1064 183 1141T470 1219Q667 1219 755 1143T852 894Q853 870 853 813T854 685T850 555H344Q344 490 345 424T349 284Q351 228 379 204T472
180Q535 180 559 204T587 286Q589 316 589 356T587 454H850Q852 437 853 392T852 314Q843 136 756 59T473 -19ZM345 740H589Q589 779 589 817T589 883T587 922Q584 975 558 997T470 1020Q403 1020 377 997T349 922Q348 875 347 830T345 740ZM519 1310V1492H701V1310H519ZM231
1310V1492H413V1310H231Z" />
<glyph unicode="&#xec;" horiz-adv-x="461" d="M98 0V1200H363V0H98ZM114 1280L-66 1547H125L295 1280H114Z" />
<glyph unicode="&#xed;" horiz-adv-x="461" d="M98 0V1200H363V0H98ZM149 1280L336 1547H527L330 1280H149Z" />
<glyph unicode="&#xee;" horiz-adv-x="461" d="M98 0V1200H363V0H98ZM229 1282L402 1549H564L737 1282H559L483 1411L407 1282H229Z" />
<glyph unicode="&#xef;" horiz-adv-x="461" d="M98 0V1200H363V0H98ZM540 1310V1492H722V1310H540ZM252 1310V1492H434V1310H252Z" />
<glyph unicode="&#xf0;" horiz-adv-x="976" d="M500 -19Q288 -19 193 67T87 354Q84 412 84 478T83 613T86 752Q88 897 168 983T369 1069Q447 1069 502 1041T583 965H607Q590 1021 565 1074T506 1173L372 1112L313 1228L415 1274Q380 1309 339 1338T250 1394L394
1618Q474 1572 540 1520T658 1409L812 1477L871 1362L741 1303Q821 1183 859 1037T905 715Q907 668 907 602T908 470T905 355Q900 221 859 139T730 19T500 -19ZM498 197Q565 197 599 224T636 303Q639 382 640 458T641 610T636 759Q633 806 595 830T489 855Q421
855 389 825T354 742Q352 685 352 608T354 450T357 305Q359 251 394 224T498 197Z" />
<glyph unicode="&#xf1;" horiz-adv-x="1010" d="M98 0V1200H363V1075H415Q458 1145 508 1182T650 1219Q779 1219 847 1146T917 902V0H652V925Q652 977 623 1001T539 1025Q490 1025 437 1000T363 931V0H98ZM667 1488H773Q767 1380 727 1332T612 1283Q566 1283 539
1297T493 1329T456 1361T409 1375Q380 1375 368 1356T350 1296H244Q253 1409 293 1460T411 1511Q457 1511 483 1498T527 1466T563 1434T611 1420Q641 1420 653 1438T667 1488Z" />
<glyph unicode="&#xf2;" horiz-adv-x="956" d="M479 -19Q337 -19 252 18T127 137T79 353Q77 397 76 461T75 598T76 737T79 848Q87 984 127 1065T253 1183T479 1219Q623 1219 707 1181T831 1062T877 848Q879 803 880 738T882 601T881 465T877 353Q869 219 830 137T707
18T479 -19ZM479 180Q550 180 579 207T611 288Q614 377 615 455T617 606T616 755T611 914Q609 967 580 993T479 1020Q409 1020 378 992T344 913Q341 847 340 772T339 617T340 454T345 288Q347 235 378 208T479 180ZM362 1280L182 1547H373L543 1280H362Z" />
<glyph unicode="&#xf3;" horiz-adv-x="956" d="M479 -19Q337 -19 252 18T127 137T79 353Q77 397 76 461T75 598T76 737T79 848Q87 984 127 1065T253 1183T479 1219Q623 1219 707 1181T831 1062T877 848Q879 803 880 738T882 601T881 465T877 353Q869 219 830 137T707
18T479 -19ZM479 180Q550 180 579 207T611 288Q614 377 615 455T617 606T616 755T611 914Q609 967 580 993T479 1020Q409 1020 378 992T344 913Q341 847 340 772T339 617T340 454T345 288Q347 235 378 208T479 180ZM397 1280L584 1547H775L578 1280H397Z" />
<glyph unicode="&#xf4;" horiz-adv-x="956" d="M479 -19Q337 -19 252 18T127 137T79 353Q77 397 76 461T75 598T76 737T79 848Q87 984 127 1065T253 1183T479 1219Q623 1219 707 1181T831 1062T877 848Q879 803 880 738T882 601T881 465T877 353Q869 219 830 137T707
18T479 -19ZM479 180Q550 180 579 207T611 288Q614 377 615 455T617 606T616 755T611 914Q609 967 580 993T479 1020Q409 1020 378 992T344 913Q341 847 340 772T339 617T340 454T345 288Q347 235 378 208T479 180ZM221 1282L394 1549H556L729 1282H551L475 1411L399
1282H221Z" />
<glyph unicode="&#xf5;" horiz-adv-x="956" d="M479 -19Q337 -19 252 18T127 137T79 353Q77 397 76 461T75 598T76 737T79 848Q87 984 127 1065T253 1183T479 1219Q623 1219 707 1181T831 1062T877 848Q879 803 880 738T882 601T881 465T877 353Q869 219 830 137T707
18T479 -19ZM479 180Q550 180 579 207T611 288Q614 377 615 455T617 606T616 755T611 914Q609 967 580 993T479 1020Q409 1020 378 992T344 913Q341 847 340 772T339 617T340 454T345 288Q347 235 378 208T479 180ZM637 1488H743Q737 1380 697 1332T582 1283Q536
1283 509 1297T463 1329T426 1361T379 1375Q350 1375 338 1356T320 1296H214Q223 1409 263 1460T381 1511Q427 1511 453 1498T497 1466T533 1434T581 1420Q611 1420 623 1438T637 1488Z" />
<glyph unicode="&#xf6;" horiz-adv-x="956" d="M479 -19Q337 -19 252 18T127 137T79 353Q77 397 76 461T75 598T76 737T79 848Q87 984 127 1065T253 1183T479 1219Q623 1219 707 1181T831 1062T877 848Q879 803 880 738T882 601T881 465T877 353Q869 219 830 137T707
18T479 -19ZM479 180Q550 180 579 207T611 288Q614 377 615 455T617 606T616 755T611 914Q609 967 580 993T479 1020Q409 1020 378 992T344 913Q341 847 340 772T339 617T340 454T345 288Q347 235 378 208T479 180ZM532 1310V1492H714V1310H532ZM244 1310V1492H426V1310H244Z"
/>
<glyph unicode="&#xf7;" horiz-adv-x="1078" d="M86 627V827H992V627H86ZM435 944V1146H645V944H435ZM435 309V510H645V309H435Z" />
<glyph unicode="&#xf8;" horiz-adv-x="956" d="M154 332L769 995L861 896L162 148L154 332ZM479 -19Q337 -19 252 18T127 137T79 353Q77 397 76 461T75 598T76 737T79 848Q87 984 127 1065T253 1183T479 1219Q623 1219 707 1181T831 1062T877 848Q879 803 880
738T882 601T881 465T877 353Q869 219 830 137T707 18T479 -19ZM479 180Q550 180 579 207T611 288Q614 377 615 455T617 606T616 755T611 914Q609 967 580 993T479 1020Q409 1020 378 992T344 913Q341 847 340 772T339 617T340 454T345 288Q347 235 378 208T479
180Z" />
<glyph unicode="&#xf9;" horiz-adv-x="1004" d="M364 -19Q237 -19 164 55T90 298V1200H357L360 276Q360 224 384 200T465 175Q516 175 566 200T636 269V1200H905V0H636V125H599Q553 48 497 15T364 -19ZM378 1280L198 1547H389L559 1280H378Z" />
<glyph unicode="&#xfa;" horiz-adv-x="1004" d="M364 -19Q237 -19 164 55T90 298V1200H357L360 276Q360 224 384 200T465 175Q516 175 566 200T636 269V1200H905V0H636V125H599Q553 48 497 15T364 -19ZM413 1280L600 1547H791L594 1280H413Z" />
<glyph unicode="&#xfb;" horiz-adv-x="1004" d="M364 -19Q237 -19 164 55T90 298V1200H357L360 276Q360 224 384 200T465 175Q516 175 566 200T636 269V1200H905V0H636V125H599Q553 48 497 15T364 -19ZM237 1282L410 1549H572L745 1282H567L491 1411L415 1282H237Z" />
<glyph unicode="&#xfc;" horiz-adv-x="1004" d="M364 -19Q237 -19 164 55T90 298V1200H357L360 276Q360 224 384 200T465 175Q516 175 566 200T636 269V1200H905V0H636V125H599Q553 48 497 15T364 -19ZM548 1310V1492H730V1310H548ZM260 1310V1492H442V1310H260Z" />
<glyph unicode="&#xfd;" horiz-adv-x="892" d="M221 -419Q187 -419 146 -415T68 -405V-208Q97 -210 143 -211T221 -213Q306 -213 339 -190T382 -108L399 0H251L36 1200H310L369 649L419 195H491L532 649L588 1200H862L651 -87Q633 -195 592 -269T464 -381T221
-419ZM366 1280L553 1547H744L547 1280H366Z" />
<glyph unicode="&#xfe;" horiz-adv-x="992" d="M86 -400V1600H356V1075H395Q437 1145 485 1182T630 1219Q756 1219 824 1146T901 902Q903 849 904 768T906 598T905 429T901 298Q893 129 818 55T616 -19Q544 -19 493 14T395 125H356V-400H86ZM509 175Q565 175 596
199T631 276Q636 347 638 431T640 604T638 777T631 931Q628 978 603 1001T525 1025Q474 1025 426 1000T356 931V269Q380 218 416 197T509 175Z" />
<glyph unicode="&#xff;" horiz-adv-x="892" d="M221 -419Q187 -419 146 -415T68 -405V-208Q97 -210 143 -211T221 -213Q306 -213 339 -190T382 -108L399 0H251L36 1200H310L369 649L419 195H491L532 649L588 1200H862L651 -87Q633 -195 592 -269T464 -381T221
-419ZM500 1310V1492H682V1310H500ZM212 1310V1492H394V1310H212Z" />
<glyph unicode="&#x2013;" horiz-adv-x="1072" d="M60 604V837H1012V604H60Z" />
<glyph unicode="&#x2014;" horiz-adv-x="1753" d="M60 604V837H1693V604H60Z" />
<glyph unicode="&#x2018;" horiz-adv-x="524" d="M83 1071V1309L247 1600H398L271 1333H440V1071H83Z" />
<glyph unicode="&#x2019;" horiz-adv-x="524" d="M126 1071L253 1338H83V1600H440V1362L277 1071H126Z" />
<glyph unicode="&#x201a;" horiz-adv-x="524" d="M120 -267L248 0H78V262H435V24L272 -267H120Z" />
<glyph unicode="&#x201c;" horiz-adv-x="892" d="M487 1071V1309L644 1600H786L668 1333H822V1071H487ZM70 1071V1309L226 1600H369L250 1333H403V1071H70Z" />
<glyph unicode="&#x201d;" horiz-adv-x="892" d="M106 1071L224 1338H70V1600H403V1362L248 1071H106ZM523 1071L642 1338H487V1600H822V1362L666 1071H523Z" />
<glyph unicode="&#x201e;" horiz-adv-x="1014" d="M120 -267L248 0H78V262H435V24L272 -267H120ZM608 -267L736 0H566V262H923V24L760 -267H608Z" />
<glyph unicode="&#x2022;" horiz-adv-x="568" d="M83 630V990H484V630H83Z" />
<glyph unicode="&#x2039;" horiz-adv-x="488" d="M404 840L60 506V750L404 1084V840ZM404 172L60 506V750L404 416V172Z" />
<glyph unicode="&#x203a;" horiz-adv-x="488" d="M83 840V1084L428 750V506L83 840ZM83 172V416L428 750V506L83 172Z" />
</font>
</defs>
</svg>
